logo

Main Tera Hero (2014) - 1CD - DVDSCR-Rip - Hindi - x264 - MP3 - M...

  • Category Movies
  • Type h.264/x264
  • Language Hindi
  • Total size 702.5 MB
  • Uploaded By Mafiaking
  • Downloads 3988
  • Last checked 1 day ago
  • Date uploaded 4 years ago
  • Seeders 0
  • Leechers 0

Main Tera Hero

ComedyRomance

This love story begins with the mischievous, clever, charming, a daredevil and the HERO who falls in love with Sunaina. How can a Hero’s love story be complete without a villain! So walks in Angad the corrupt cop, who wants to forcibly marry Sunaina and to make things more spicy also does Ayesha who is madly in love with our Hero. A massy entertaining romantic drama ensues, which takes our Hero from the mountainous Ooty, to the fun college campus of Bangalore, and then to a beautiful mansion, in gorgeous Thailand.

Infohash : 6D9910B1E8CF78607208C590E4732544507E45E7

Download Main Tera Hero (2014) - 1CD - DVDSCR-Rip - Hindi - x264 - MP3 - Mafiaking - [D3Si MaNiaCs] Torrent


Download Main Tera Hero (2014) - 1CD - DVDSCR-Rip - Hindi - x264 - MP3 - Mafiaking - [D3Si MaNiaCs] Torrent


Download Main Tera Hero (2014) - 1CD - DVDSCR-Rip - Hindi - x264 - MP3 - Mafiaking - [D3Si MaNiaCs] Torrent

Quote:




IMDB Rating: 7.2/10.0


GENRE: Action | Comedy | Romance


General
Unique ID : 194935805272466998032257297087538235077 (0x92A7453CEA64F92B930FD8B422B586C5)
Complete name : Main Tera Hero (2014) - 1CD - DVDSCR-Rip - Hindi - x264 - MP3 - Mafiaking - [D3Si MaNiaCs].mkv
Format : Matroska
Format version : Version 4 / Version 2
File size : 696 MiB
Duration : 2h 6mn
Overall bit rate mode : Variable
Overall bit rate : 767 Kbps
Movie name : Main Tera Hero (2014) - 1CD - DVDSCR-Rip - Hindi - x264 - MP3 - Mafiaking - [D3Si MaNiaCs]
Encoded date : UTC 2014-04-05 12:10:47
Writing application : mkvmerge v6.3.0 ('You can't stop me!') built on Jun 28 2013 20:09:41
Writing library : libebml v1.3.0 + libmatroska v1.4.0

Video
ID : 1
Format : AVC
Format/Info : Advanced Video Codec
Format profile : [email protected]
Format settings, CABAC : Yes
Format settings, ReFrames : 5 frames
Codec ID : V_MPEG4/ISO/AVC
Duration : 2h 6mn
Bit rate : 700 Kbps
Width : 640 pixels
Height : 272 pixels
Display aspect ratio : 2.35:1
Frame rate mode : Constant
Frame rate : 29.970 fps
Color space : YUV
Chroma subsampling : 4:2:0
Bit depth : 8 bits
Scan type : Progressive
Bits/(Pixel*Frame) : 0.134
Stream size : 624 MiB (90%)
Title : Mafiaking

Language : Hindi
Default : Yes
Forced : No

Audio
ID : 2
Format : MPEG Audio
Format version : Version 2
Format profile : Layer 3
Mode : Joint stereo
Mode extension : MS Stereo
Codec ID : A_MPEG/L3
Codec ID/Hint : MP3
Duration : 2h 7mn
Bit rate mode : Variable
Bit rate : 64.0 Kbps
Channel(s) : 2 channels
Sampling rate : 24.0 KHz
Compression mode : Lossy
Stream size : 58.5 MiB (8%)
Title : Mafiaking
Writing library : LAME3.99r
Encoding settings : -m j -V 4 -q 2 -lowpass 11 --abr 64
Language : Hindi
Default : Yes
Forced : No


SAMPLE WITH IN TORRENT





Download Main Tera Hero (2014) - 1CD - DVDSCR-Rip - Hindi - x264 - MP3 - Mafiaking - [D3Si MaNiaCs] Torrent


Download Main Tera Hero (2014) - 1CD - DVDSCR-Rip - Hindi - x264 - MP3 - Mafiaking - [D3Si MaNiaCs] Torrent

Download Main Tera Hero (2014) - 1CD - DVDSCR-Rip - Hindi - x264 - MP3 - Mafiaking - [D3Si MaNiaCs] Torrent

Download Main Tera Hero (2014) - 1CD - DVDSCR-Rip - Hindi - x264 - MP3 - Mafiaking - [D3Si MaNiaCs] Torrent

Download Main Tera Hero (2014) - 1CD - DVDSCR-Rip - Hindi - x264 - MP3 - Mafiaking - [D3Si MaNiaCs] Torrent

Download Main Tera Hero (2014) - 1CD - DVDSCR-Rip - Hindi - x264 - MP3 - Mafiaking - [D3Si MaNiaCs] Torrent

WE ArE N0w 0n FaCEbooK.... please If You liKe 0uR WorK ..Please Like Us...


Download Main Tera Hero (2014) - 1CD - DVDSCR-Rip - Hindi - x264 - MP3 - Mafiaking - [D3Si MaNiaCs] Torrent



Download Main Tera Hero (2014) - 1CD - DVDSCR-Rip - Hindi - x264 - MP3 - Mafiaking - [D3Si MaNiaCs] Torrent

Files:

  • Main Tera Hero (2014) - 1CD - DVDSCR-Rip - Hindi - x264 - MP3 - Mafiaking - [D3Si MaNiaCs].mkv (696.2 MB)
  • SaMple-Main Tera Hero (2014) - 1CD - DVDSCR-Rip - Hindi - x264 - MP3 - Mafiaking - [D3Si MaNiaCs].mkv (6.4 MB)
  • Torrent Downloaded From ExtraTorrent.cc.txt (0.3 KB)

There are currently no comments. Feel free to leave one :)

Code:

  • udp://tracker.prq.to/announce
  • udp://tracker.token.ro:80/announce
  • udp://9.rarbg.com:2710/announce
  • http://94.228.192.98/announce
  • udp://tracker.istole.it:80
  • udp://tracker.openbittorrent.com:80/announce
  • udp://tracker.publichd.eu:80/announce
  • udp://tracker.yify-torrents.com/announce
  • udp://tracker.publicbt.com:80
  • udp://open.demonii.com:1337/announce
  • http://exodus.desync.com/announce
  • udp://coppersurfer.tk:6969/announce
X
Attention! Use a VPN when Accessing Free Content !
Your IP address is - Country:
Your Internet provider Tracks your Activity! Hide your IP ADDRESS with a VPN!
Bonus: Get Lag-Free Streams & No popups with any VPN Purchased !

Download Here
Sitemap