logo

Main Tera Hero 2014 720p HQ DVDScr x264 Pimp4003

  • Category Movies
  • Type DVD
  • Language Hindi
  • Total size 2.1 GB
  • Uploaded By pimp4003
  • Downloads 3131
  • Last checked 56 minutes ago
  • Date uploaded 4 years ago
  • Seeders 0
  • Leechers 0

Main Tera Hero

ComedyRomance

This love story begins with the mischievous, clever, charming, a daredevil and the HERO who falls in love with Sunaina. How can a Hero’s love story be complete without a villain! So walks in Angad the corrupt cop, who wants to forcibly marry Sunaina and to make things more spicy also does Ayesha who is madly in love with our Hero. A massy entertaining romantic drama ensues, which takes our Hero from the mountainous Ooty, to the fun college campus of Bangalore, and then to a beautiful mansion, in gorgeous Thailand.

Infohash : 3666A56B392683AE7EDC9F0F0B49F5D48F81E44E

SOURCE IS DDR

PIMP4003 PRESENTS

Main Tera Hero 2014 720p HQ DVDScr x264 Pimp4003

http://www.imdb.com/title/tt2762334/

This love story begins with the mischievous, clever, charming, a daredevil and the HERO who falls in love with Sunaina. How can a Hero’s love story be complete without a villain! So walks in Angad the corrupt cop, who wants to forcibly marry Sunaina and to make things more spicy also does Ayesha who is madly in love with our Hero. A massy entertaining romantic drama ensues, which takes our Hero from the mountainous Ooty, to the fun college campus of Bangalore, and then to a beautiful mansion, in gorgeous Thailand.

Runtime: 128 Minutes
Size: 2.06 GB
Uploader: pimp4003

Video
ID : 1
Format : AVC
Format/Info : Advanced Video Codec
Format profile : [email protected]
Format settings, CABAC : Yes
Format settings, ReFrames : 5 frames
Format settings, GOP : M=4, N=13
Codec ID : avc1
Codec ID/Info : Advanced Video Coding
Duration : 2h 6mn
Bit rate : 2 144 Kbps
Width : 1 280 pixels
Height : 526 pixels
Display aspect ratio : 2.40:1
Frame rate mode : Constant
Frame rate : 23.976 fps
Color space : YUV
Chroma subsampling : 4:2:0
Bit depth : 8 bits
Scan type : Progressive
Bits/(Pixel*Frame) : 0.133
Stream size : 1.91 GiB (93%)
Writing library : x264 core 110
Encoding settings : cabac=1 / ref=5 / deblock=1:0:0 / analyse=0x3:0x133 / me=hex / subme=8 / psy=1 / psy_rd=1.00:0.00 / mixed_ref=1 / me_range=16 / chroma_me=0 / trellis=1 / 8x8dct=1 / cqm=0 / deadzone=21,11 / fast_pskip=1 / chroma_qp_offset=-2 / threads=8 / sliced_threads=0 / nr=0 / decimate=1 / interlaced=0 / constrained_intra=0 / bframes=3 / b_pyramid=0 / b_adapt=0 / b_bias=0 / direct=3 / weightb=1 / open_gop=0 / weightp=0 / keyint=13 / keyint_min=7 / scenecut=0 / intra_refresh=0 / rc_lookahead=13 / rc=abr / mbtree=1 / bitrate=2144 / ratetol=1.0 / qcomp=0.00 / qpmin=10 / qpmax=51 / qpstep=4 / ip_ratio=1.41 / aq=1:1.00

Audio
ID : 2
Format : AAC
Format/Info : Advanced Audio Codec
Format profile : LC
Codec ID : 40
Duration : 2h 6mn
Bit rate mode : Variable
Bit rate : 165 Kbps
Channel(s) : 2 channels
Channel positions : Front: L R
Sampling rate : 48.0 KHz
Compression mode : Lossy
Stream size : 150 MiB (7%)

SOURCE IS DDR...LIKE ALWAYS THEY DO A GOOD JOB...BUT AUDIO WAS A LITTLE OUT OF SYNC..FIXED IT AND MADE THE VIDEO BRIGHTER...ENJOY

Files:

  • [WWW.PIMP4003.NET] Main Tera Hero 2014 720p HQ DVDScr x264 Pimp4003.mp4 (2.1 GB)
  • Torrent downloaded from at BTS.to.txt (0.1 KB)
  • Facebook.com Pimp4003.net.txt (0.1 KB)
  • Torrent Downloaded From Pimp4003.net.txt (0.1 KB)
  • Torrent downloaded from demonoid.ph.txt (0.0 KB)

There are currently no comments. Feel free to leave one :)

Code:

  • http://inferno.demonoid.ph:3389/announce
  • udp://open.demonii.com:1337/announce
  • http://tracker1.wasabii.com.tw:6969/announce
  • http://tracker.pimp4003.net/announce
  • udp://tracker.istole.it:80/announce
  • udp://tracker.publicbt.com:80/announce
  • udp://tracker.openbittorrent.com:80/announce
  • udp://9.rarbg.com:2710/announce
X
Attention! Use a VPN when Accessing Free Content !
Your IP address is - Country:
Your Internet provider Tracks your Activity! Hide your IP ADDRESS with a VPN!
Bonus: Get Lag-Free Streams & No popups with any VPN Purchased !

Download Here
Sitemap