logo

Main Tera Hero (2014) - 720p - Blu-Ray - x264 - Hindi - AC3 - 5.1...

  • Category Movies
  • Type h.264/x264
  • Language Hindi
  • Total size 1.0 GB
  • Uploaded By Mafiaking
  • Downloads 10243
  • Last checked 6 months ago
  • Date uploaded 4 years ago
  • Seeders 0
  • Leechers 1

Main Tera Hero

ComedyRomance

This love story begins with the mischievous, clever, charming, a daredevil and the HERO who falls in love with Sunaina. How can a Hero’s love story be complete without a villain! So walks in Angad the corrupt cop, who wants to forcibly marry Sunaina and to make things more spicy also does Ayesha who is madly in love with our Hero. A massy entertaining romantic drama ensues, which takes our Hero from the mountainous Ooty, to the fun college campus of Bangalore, and then to a beautiful mansion, in gorgeous Thailand.

Infohash : 1DF8C8F07E985B7B22A41B387DA6DFFEAD8D00F7

Download Main Tera Hero (2014) - 720p - Blu-Ray - x264 - Hindi - AC3 - 5.1 - Mafiaking - [D3Si MaNiaCs] Torrent


Download Main Tera Hero (2014) - 720p - Blu-Ray - x264 - Hindi - AC3 - 5.1 - Mafiaking - [D3Si MaNiaCs] Torrent


Download Main Tera Hero (2014) - 720p - Blu-Ray - x264 - Hindi - AC3 - 5.1 - Mafiaking - [D3Si MaNiaCs] Torrent


Quote:




IMDB Rating: 5.6/10.0


GENRE: Action | Comedy | Romance


General
Unique ID : 170583726771202349716542656516222982685 (0x80553B11DE0577248E416219E2559A1D)
Complete name : Main Tera Hero (2014) - 720p - Blu-Ray - x264 - Hindi - AC3 - 5.1 - Mafiaking - [D3Si MaNiaCs].mkv
Format : Matroska
Format version : Version 4 / Version 2
File size : 1 019 MiB
Duration : 2h 7mn
Overall bit rate : 1 119 Kbps
Movie name : Main Tera Hero (2014) - 720p - Blu-Ray - x264 - Hindi - AC3 - 5.1 - Mafiaking - [D3Si MaNiaCs]
Encoded date : UTC 2014-06-21 12:38:26
Writing application : mkvmerge v6.5.0 ('Isn't she lovely') built on Oct 20 2013 12:50:05
Writing library : libebml v1.3.0 + libmatroska v1.4.1


Video
ID : 1
Format : AVC
Format/Info : Advanced Video Codec
Format profile : [email protected]
Format settings, CABAC : Yes
Format settings, ReFrames : 4 frames
Codec ID : V_MPEG4/ISO/AVC
Duration : 2h 7mn
Bit rate : 925 Kbps
Width : 1 280 pixels
Height : 544 pixels
Display aspect ratio : 2.35:1
Frame rate mode : Constant
Frame rate : 24.000 fps
Color space : YUV
Chroma subsampling : 4:2:0
Bit depth : 8 bits
Scan type : Progressive
Bits/(Pixel*Frame) : 0.055
Stream size : 824 MiB (81%)
Title : Mafiaking
Language : Hindi
Default : Yes
Forced : No


Audio
ID : 2
Format : AC-3
Format/Info : Audio Coding 3
Mode extension : CM (complete main)
Format settings, Endianness : Big
Codec ID : A_AC3
Duration : 2h 7mn
Bit rate mode : Constant
Bit rate : 192 Kbps
Channel(s) : 6 channels
Channel positions : Front: L C R, Side: L R, LFE
Sampling rate : 48.0 KHz
Bit depth : 16 bits
Compression mode : Lossy
Stream size : 175 MiB (17%)
Title : Mafiaking
Language : Hindi
Default : Yes
Forced : No


SAMPLE WITH IN TORRENT





Download Main Tera Hero (2014) - 720p - Blu-Ray - x264 - Hindi - AC3 - 5.1 - Mafiaking - [D3Si MaNiaCs] Torrent

Download Main Tera Hero (2014) - 720p - Blu-Ray - x264 - Hindi - AC3 - 5.1 - Mafiaking - [D3Si MaNiaCs] Torrent

Download Main Tera Hero (2014) - 720p - Blu-Ray - x264 - Hindi - AC3 - 5.1 - Mafiaking - [D3Si MaNiaCs] Torrent

Download Main Tera Hero (2014) - 720p - Blu-Ray - x264 - Hindi - AC3 - 5.1 - Mafiaking - [D3Si MaNiaCs] Torrent

Download Main Tera Hero (2014) - 720p - Blu-Ray - x264 - Hindi - AC3 - 5.1 - Mafiaking - [D3Si MaNiaCs] Torrent

Download Main Tera Hero (2014) - 720p - Blu-Ray - x264 - Hindi - AC3 - 5.1 - Mafiaking - [D3Si MaNiaCs] Torrent

Download Main Tera Hero (2014) - 720p - Blu-Ray - x264 - Hindi - AC3 - 5.1 - Mafiaking - [D3Si MaNiaCs] Torrent

Download Main Tera Hero (2014) - 720p - Blu-Ray - x264 - Hindi - AC3 - 5.1 - Mafiaking - [D3Si MaNiaCs] Torrent

Download Main Tera Hero (2014) - 720p - Blu-Ray - x264 - Hindi - AC3 - 5.1 - Mafiaking - [D3Si MaNiaCs] Torrent

Download Main Tera Hero (2014) - 720p - Blu-Ray - x264 - Hindi - AC3 - 5.1 - Mafiaking - [D3Si MaNiaCs] Torrent

Download Main Tera Hero (2014) - 720p - Blu-Ray - x264 - Hindi - AC3 - 5.1 - Mafiaking - [D3Si MaNiaCs] Torrent

Download Main Tera Hero (2014) - 720p - Blu-Ray - x264 - Hindi - AC3 - 5.1 - Mafiaking - [D3Si MaNiaCs] Torrent

Download Main Tera Hero (2014) - 720p - Blu-Ray - x264 - Hindi - AC3 - 5.1 - Mafiaking - [D3Si MaNiaCs] Torrent

Download Main Tera Hero (2014) - 720p - Blu-Ray - x264 - Hindi - AC3 - 5.1 - Mafiaking - [D3Si MaNiaCs] Torrent

Download Main Tera Hero (2014) - 720p - Blu-Ray - x264 - Hindi - AC3 - 5.1 - Mafiaking - [D3Si MaNiaCs] Torrent

Download Main Tera Hero (2014) - 720p - Blu-Ray - x264 - Hindi - AC3 - 5.1 - Mafiaking - [D3Si MaNiaCs] Torrent

Download Main Tera Hero (2014) - 720p - Blu-Ray - x264 - Hindi - AC3 - 5.1 - Mafiaking - [D3Si MaNiaCs] Torrent

Download Main Tera Hero (2014) - 720p - Blu-Ray - x264 - Hindi - AC3 - 5.1 - Mafiaking - [D3Si MaNiaCs] Torrent

Download Main Tera Hero (2014) - 720p - Blu-Ray - x264 - Hindi - AC3 - 5.1 - Mafiaking - [D3Si MaNiaCs] Torrent

Download Main Tera Hero (2014) - 720p - Blu-Ray - x264 - Hindi - AC3 - 5.1 - Mafiaking - [D3Si MaNiaCs] Torrent

Download Main Tera Hero (2014) - 720p - Blu-Ray - x264 - Hindi - AC3 - 5.1 - Mafiaking - [D3Si MaNiaCs] Torrent

Special Thanks To Team TNT For Source.

Files:

  • Main Tera Hero (2014) - 720p - Blu-Ray - x264 - Hindi - AC3 - 5.1 - Mafiaking - [D3Si MaNiaCs].mkv (1,018.7 MB)
  • SaMple-Main Tera Hero (2014) - 720p - Blu-Ray - x264 - Hindi - AC3 - 5.1 - Mafiaking - [D3Si MaNiaCs].mkv (7.0 MB)
  • Torrent Downloaded From ExtraTorrent.cc.txt (0.4 KB)
  • A D3siManiAcs Release !!.txt (0.1 KB)

There are currently no comments. Feel free to leave one :)

Code:

  • http://94.228.192.98/announce
  • http://torrent.gresille.org/announce
  • http://bttracker.crunchbanglinux.org:6969/announce
  • http://exodus.desync.com:6969/announce
  • http://tracker.aletorrenty.pl:2710/announce
  • udp://11.rarbg.me:80/announce
  • udp://open.demonii.com:1337/announce
  • udp://exodus.desync.com:6969/announce
  • udp://tracker.openbittorrent.com:80/announce
  • udp://9.rarbg.com:2710/announce
  • udp://coppersurfer.tk:6969/announce
  • udp://tracker.publicbt.com:80
X
Attention! Use a VPN when Accessing Free Content !
Your IP address is - Country:
Your Internet provider Tracks your Activity! Hide your IP ADDRESS with a VPN!
Bonus: Get Lag-Free Streams & No popups with any VPN Purchased !

Download Here
Sitemap